some_text
News: The new address of our site is www.esas.ro! Please use search if you find something. Thank you
marți, 10 ianuarie 2017



Duration: 01:34:40.09, start: 0.000000, bitrate: 2708 kb/s
   Stream #0:0: Video: hevc (Main), yuv420p(tv), 1920x1080 [SAR 1:1 DAR 16:9], 25 fps, 25 tbr, 1k tbn, 25 tbc (default)
  
    
     DURATION-eng    : 01:34:40.050000000
    
     DURATION        : 01:34:40.086000000
   Stream #0:1(eng): Audio: ac3, 48000 Hz, 5.1(side), fltp, 384 kb/s (default)

Sorry :( Link Removed by DMCA

0 comentarii:

Trimiteți un comentariu