some_text
News: The new address of our site is www.esas.ro! Please use search if you find something. Thank you
joi, 7 iulie 2016


Source: UEFA Euro 2016 Semi Finals Portugal vs Wales 720p HDTV iTV HD MPEG TS (4.5 GB)

 __--__--__--__--__--__--__--__--__--__--__--__--__--

Complete name : UEFA.Euro.2016.Semi.Finals.Portugal.vs.Wales.2nd.Half.720p.HDTV.HEVC.2CH.x265.mkv
Format : Matroska
Format version : Version 4 / Version 2
File size : 503 MiB
Duration : 1h 4mn
Overall bit rate : 1 088 Kbps
Writing application : Lavf57.25.100
Writing library : Lavf57.25.100

Video

ID : 1
Format : V_MPEGH/ISO/HEVC
Codec ID : V_MPEGH/ISO/HEVC
Duration : 1h 4mn
Bit rate : 874 Kbps
Width : 1 280 pixels
Height : 720 pixels
Display aspect ratio : 16:9
Frame rate : 25.000 fps
Bits/(Pixel*Frame) : 0.038
Stream size : 404 MiB (80%)
Writing library : Lavc57.48.101 libx265
Default : Yes
Forced : No
DURATION : 01:04:38.451000000

Audio

ID : 2
Format : AC-3
Format/Info : Audio Coding 3
Mode extension : CM (complete main)
Format settings, Endianness : Big
Codec ID : A_AC3
Duration : 1h 4mn
Bit rate mode : Constant
Bit rate : 192 Kbps
Channel(s) : 2 channels
Channel positions : Front: L R
Sampling rate : 48.0 KHz
Bit depth : 16 bits
Compression mode : Lossy
Stream size : 88.8 MiB (18%)
Title : Stereo
Writing library : Lavc57.24.102 ac3
Default : Yes
Forced : No
DURATION : 01:04:38.143000000

Torrent Free Download Here

0 comentarii:

Trimiteți un comentariu