some_text
News: The new address of our site is www.esas.ro! Please use search if you find something. Thank you
luni, 4 iulie 2016


Source: UEFA Euro 2016 Quarter Finals France vs Iceland 720p HDTV BBC One HD MPEG TS (4.5 GB)

 __--__--__--__--__--__--__--__--__--__--__--__--__--

Complete name : UEFA.Euro.2016.Quarter.Finals.France.vs.Iceland.1st.Half.720p.HDTV.HEVC.2CH.x265.mkv
Format : Matroska
Format version : Version 4 / Version 2
File size : 457 MiB
Duration : 59mn 28s
Overall bit rate : 1 075 Kbps
Writing application : Lavf57.25.100
Writing library : Lavf57.25.100

Video

ID : 1
Format : V_MPEGH/ISO/HEVC
Codec ID : V_MPEGH/ISO/HEVC
Duration : 59mn 28s
Bit rate : 862 Kbps
Width : 1 280 pixels
Height : 720 pixels
Display aspect ratio : 16:9
Frame rate : 25.000 fps
Bits/(Pixel*Frame) : 0.037
Stream size : 367 MiB (80%)
Writing library : Lavc57.48.101 libx265
Default : Yes
Forced : No
DURATION : 00:59:28.931000000

Audio

ID : 2
Format : AC-3
Format/Info : Audio Coding 3
Mode extension : CM (complete main)
Format settings, Endianness : Big
Codec ID : A_AC3
Duration : 59mn 28s
Bit rate mode : Constant
Bit rate : 192 Kbps
Channel(s) : 2 channels
Channel positions : Front: L R
Sampling rate : 48.0 KHz
Bit depth : 16 bits
Compression mode : Lossy
Stream size : 81.7 MiB (18%)
Title : Stereo
Writing library : Lavc57.24.102 ac3
Default : Yes
Forced : No
DURATION : 00:59:28.639000000

Torrent Free Download Here

0 comentarii:

Trimiteți un comentariu