some_text
News: The new address of our site is www.esas.ro! Please use search if you find something. Thank you
joi, 16 iunie 2016


Source: UEFA Euro 2016 Group A Romania vs Switzerland 720p HDTV x264-ANGELiC (2.71 GB)

 __--__--__--__--__--__--__--__--__--__--__--__--__--

Complete name : UEFA.Euro.2016.Group.A.Romania.vs.Switzerland.720p.HDTV.HEVC.2CH.x265.mkv
Format : Matroska
Format version : Version 4 / Version 2
File size : 797 MiB
Duration : 1h 42mn
Overall bit rate : 1 086 Kbps
Writing application : Lavf57.25.100
Writing library : Lavf57.25.100

Video

ID : 1
Format : V_MPEGH/ISO/HEVC
Codec ID : V_MPEGH/ISO/HEVC
Duration : 1h 42mn
Bit rate : 872 Kbps
Width : 1 280 pixels
Height : 720 pixels
Display aspect ratio : 16:9
Frame rate : 25.000 fps
Bits/(Pixel*Frame) : 0.038
Stream size : 640 MiB (80%)
Writing library : Lavc57.24.102 libx265
Language : English
Default : Yes
Forced : No
DURATION : 01:42:38.011000000

Audio

ID : 2
Format : AC-3
Format/Info : Audio Coding 3
Mode extension : CM (complete main)
Format settings, Endianness : Big
Codec ID : A_AC3
Duration : 1h 42mn
Bit rate mode : Constant
Bit rate : 192 Kbps
Channel(s) : 2 channels
Channel positions : Front: L R
Sampling rate : 48.0 KHz
Bit depth : 16 bits
Compression mode : Lossy
Stream size : 141 MiB (18%)
Writing library : Lavc57.24.102 ac3
Default : Yes
Forced : No
DURATION : 01:42:38.015000000

Torrent Free Download Here

0 comentarii:

Trimiteți un comentariu