some_text
News: The new address of our site is www.esas.ro! Please use search if you find something. Thank you
joi, 10 martie 2016


Plot:

The teenage DJ is observing his neighbor Nebbercracker on the other side of their street in the
suburb that destroys tricycles of children that trespass his lawn. When DJ's parents travel on
the eve of Halloween and the abusive nanny Zee stays with him, he calls his clumsy best friend
Chowder to play basketball. But when the ball falls in Nebbercracker's lawn, the old man has a
siege, and soon they find that the house is a monster. Later the boys rescue the smart Jenny
from the house and the trio unsuccessfully tries to convince the babysitter, her boyfriend
Bones and two police officers that the haunted house is a monster, but nobody believes them.
The teenagers ask their video-game addicted acquaintance Skull how to destroy the house, and
they disclose its secret on the Halloween night.

Cast:
Ryan Newman ... Little Girl (voice) 
Steve Buscemi ... Nebbercracker (voice) 
Mitchel Musso ... DJ (voice) 
Catherine O'Hara ... Mom (voice) 
Fred Willard ... Dad (voice) 
Sam Lerner ... Chowder (voice) 
Woody Schultz ... Paramedic #1 (voice) 
Ian McConnel ... Paramedic #2 (voice) 
Maggie Gyllenhaal ... Zee (voice) 
Jason Lee ... Bones (voice) 
Spencer Locke ... Jenny (voice) 
Kevin James ... Officer Landers (voice) 
Nick Cannon ... Officer Lister (voice) 
Jon Heder ... Reginald 'Skull' Skulinski (voice) 
Kathleen Turner ... Constance (voice)

Stats:
Format : AVI
Format/Info : Audio Video Interleave
File size : 700 MiB
Duration : 1h 30mn
Overall bit rate : 1 079 Kbps
Writing application : VirtualDubMod 1.5.10.2 (build 2540/release)
Writing library : VirtualDubMod build 2540/release

Video
ID : 0
Format : MPEG-4 Visual
Format profile : Advanced [email protected]
Format settings, BVOP : Yes
Format settings, QPel : No
Format settings, GMC : No warppoints
Format settings, Matrix : Default (H.263)
Muxing mode : Packed bitstream
Codec ID : XVID
Codec ID/Hint : XviD
Duration : 1h 30mn
Bit rate : 909 Kbps
Width : 624 pixels
Height : 256 pixels
Display aspect ratio : 2.40:1
Frame rate : 23.976 fps
Color space : YUV
Chroma subsampling : 4:2:0
Bit depth : 8 bits
Scan type : Progressive
Bits/(Pixel*Frame) : 0.237
Stream size : 589 MiB (84%)
Writing library : XviD 64

Audio
ID : 1
Format : MPEG Audio
Format version : Version 1
Format profile : Layer 3
Mode : Joint stereo
Mode extension : MS Stereo
Codec ID : 55
Codec ID/Hint : MP3
Duration : 1h 30mn
Bit rate mode : Variable
Bit rate : 158 Kbps
Minimum bit rate : 160 Kbps
Channel(s) : 2 channels
Sampling rate : 48.0 KHz
Stream size : 102 MiB (15%)
Alignment : Aligned on interleaves
Interleave, duration : 24 ms (0.58 video frame)
Interleave, preload duration : 116 ms
Writing library : LAME4.0a
Encoding settings : -m j -V 4 -q 5 -lowpass 18 --vbr-old -b 160


Torrent Free Download: Here

0 comentarii:

Trimiteți un comentariu