some_text
News: The new address of our site is www.esas.ro! Please use search if you find something. Thank you
duminică, 13 martie 2016


                                                       IMDB Rating:6.8/10.0


                                         GENRE: Animation | Adventure | Comedy 


image


Complete name : Flushed Away
Format : Matroska
Format version : Version 4 / Version 2
File size : 1.20 GiB
Duration : 1h 21mn
Overall bit rate : 2 113 Kbps
Movie name : Flushed Away (2006) 720p BRRip X264 Hindi [email protected]@T
Encoded date : UTC 2013-03-05 13:28:33
Writing application : mkvmerge v6.0.0 ('Coming Up For Air') built on Jan 20 2013 09:52:00
Writing library : libebml v1.3.0 + libmatroska v1.4.0


image


ID : 1
Format : AVC
Format/Info : Advanced Video Codec
Format profile : [email protected]
Format settings, CABAC : No
Format settings, ReFrames : 4 frames
Format settings, GOP : M=1, N=12
Codec ID : V_MPEG4/ISO/AVC
Duration : 1h 21mn
Bit rate : 1 943 Kbps
Width : 1 280 pixels
Height : 680 pixels
Display aspect ratio : 16:9
Original display aspect ratio : 16:9
Frame rate mode : Constant
Frame rate : 25.000 fps
Standard : PAL
Color space : YUV
Chroma subsampling : 4:2:0
Bit depth : 8 bits
Scan type : Progressive
Bits/(Pixel*Frame) : 0.089
Stream size : 1.10 GiB (92%)
Title : [email protected]@T
Language : English
Default : Yes
Forced : No
Color primaries : BT.601 PAL
Transfer characteristics : BT.470 System B, BT.470 System G
Matrix coefficients : BT.601


image


ID : 2
Format : AC-3
Format/Info : Audio Coding 3
Mode extension : CM (complete main)
Format settings, Endianness : Big
Codec ID : A_AC3
Duration : 1h 21mn
Bit rate mode : Constant
Bit rate : 128 Kbps
Channel(s) : 2 channels
Channel positions : Front: L R
Sampling rate : 44.1 KHz
Bit depth : 16 bits
Compression mode : Lossy
Stream size : 74.3 MiB (6%)
Title : [email protected]@T
Language : Hindi
Default : Yes
Forced : No




Torrent Free Download: Here

0 comentarii:

Trimiteți un comentariu