some_text
News: The new address of our site is www.esas.ro! Please use search if you find something. Thank you
joi, 18 februarie 2016


               Oliver Twist (1997) 720p DVDip x264 [Dual Audio] [Hindi DD 2.0 - English]

                                                                 Format : Matroska 
                                                                 Format version : Version 4 / Version 2 
File size : 2.59 GiB 
Duration : 1h 27mn 
Overall bit rate : 4 221 Kbps 


Video 
ID : 1 
Format : AVC 
Format/Info : Advanced Video Codec 
Format profile : [email protected] 
Format settings, CABAC : Yes 
Format settings, ReFrames : 4 frames 
Codec ID : V_MPEG4/ISO/AVC 
Duration : 1h 27mn 
Bit rate : 3 803 Kbps 
Width : 1 280 pixels 
Height : 704 pixels 
Display aspect ratio : 16:9 
Frame rate mode : Constant 
Frame rate : 25.000 fps 
Color space : YUV 
Chroma subsampling : 4:2:0 
Bit depth : 8 bits 
Scan type : Progressive 
Bits/(Pixel*Frame) : 0.169 
Stream size : 2.28 GiB (88%) 
Title : monu987 
Writing library : x264 core 142 r2431 ac76440 
Language : English 
Default : Yes 
Forced : No 
Color range : Limited 
Color primaries : Generic film 
Transfer characteristics : BT.709 
Matrix coefficients : BT.709 

Audio #1 
ID : 2 
Format : AC-3 
Format/Info : Audio Coding 3 
Format profile : Dolby Digital 
Mode extension : CM (complete main) 
Format settings, Endianness : Big 
Codec ID : A_AC3 
Duration : 1h 27mn 
Bit rate mode : Constant 
Bit rate : 224 Kbps 
Channel(s) : 2 channels 
Channel positions : Front: L R 
Sampling rate : 48.0 KHz 
Bit depth : 16 bits 
Compression mode : Lossy 
Stream size : 141 MiB (5%) 
Title : monu987 
Language : Hindi 
Default : Yes 
Forced : Yes 

Audio #2 
ID : 3 
Format : AC-3 
Format/Info : Audio Coding 3 
Mode extension : CM (complete main) 
Format settings, Endianness : Big 
Codec ID : A_AC3 
Duration : 1h 27mn 
Bit rate mode : Constant 
Bit rate : 192 Kbps 
Channel(s) : 6 channels 
Channel positions : Front: L C R, Side: L R, LFE 
Sampling rate : 48.0 KHz 
Bit depth : 16 bits 
Compression mode : Lossy 
Stream size : 121 MiB (5%) 
Title : monu987 
Language : English 
Default : No 
Forced : No 


Torrent Free Download: Here

0 comentarii:

Trimiteți un comentariu