some_text
News: The new address of our site is www.esas.ro! Please use search if you find something. Thank you
duminică, 7 februarie 2016


Source : PPQ (Thanks)
Complete name : Kingdom.Of.Heaven.2005.Director's.Cut.720p.BRRip.x264
Format : MPEG-4
Format profile : Base Media
Codec ID : isom
File size : 1.60 GiB
Duration : 3h 9mn
Overall bit rate mode : Variable
Overall bit rate : 1 210 Kbps

Video
ID : 1
Format : AVC
Format/Info : Advanced Video Codec
Format profile : [email protected]
Format settings, CABAC : Yes
Format settings, ReFrames : 4 frames
Codec ID : avc1
Codec ID/Info : Advanced Video Coding
Duration : 3h 9mn
Bit rate : 1 110 Kbps
Maximum bit rate : 6 562 Kbps
Width : 1 280 pixels
Height : 544 pixels
Display aspect ratio : 2.35:1
Frame rate mode : Constant
Frame rate : 23.976 fps
Color space : YUV
Chroma subsampling : 4:2:0
Bit depth : 8 bits
Scan type : Progressive
Bits/(Pixel*Frame) : 0.066
Stream size : 1.47 GiB (92%)
Writing library : x264 core 133 r2334 a3ac64b

Audio
ID : 2
Format : AAC
Format/Info : Advanced Audio Codec
Format profile : LC
Codec ID : 40
Duration : 3h 9mn
Bit rate mode : Variable
Bit rate : 96.0 Kbps
Maximum bit rate : 139 Kbps
Channel(s) : 2 channels
Channel positions : Front: L R
Sampling rate : 48.0 KHz
Compression mode : Lossy
Stream size : 130 MiB (8%)
Language : English
Encoder : Fastbet99

Torrent Free Download: Here

0 comentarii:

Trimiteți un comentariu