some_text
News: The new address of our site is www.esas.ro! Please use search if you find something. Thank you
joi, 28 ianuarie 2016


General

Unique ID : 232491149104387057116644661416834306789 (0xAEE82AA569EC2D6A9C70E698ECBF12E5)
Complete name : Ride Along (2014) 720p Blu-Ray x264 [Dual-Audio] [English DD 5.1 + Hindi DD 2.1] - Mafiaking - TeamTNT.mkv
Format : Matroska
Format version : Version 4 / Version 2
File size : 1 011 MiB
Duration : 1h 39mn
Overall bit rate : 1 418 Kbps
Movie name : Ride Along (2014) 720p Blu-Ray x264 [Dual-Audio] [English DD 5.1 + Hindi DD 2.1] - Mafiaking - TeamTNT
Encoded date : UTC 2014-07-25 19:09:05
Writing application : mkvmerge v7.0.0 ('Where We Going') 32bit built on Jun 9 2014 15:08:34
Writing library : libebml v1.3.0 + libmatroska v1.4.1


Video

ID : 1
Format : AVC
Format/Info : Advanced Video Codec
Format profile : [email protected]
Format settings, CABAC : Yes
Format settings, ReFrames : 4 frames
Codec ID : V_MPEG4/ISO/AVC
Duration : 1h 39mn
Bit rate : 1 000 Kbps
Width : 1 280 pixels
Height : 534 pixels
Display aspect ratio : 2.40:1
Frame rate mode : Constant
Frame rate : 23.976 fps
Color space : YUV
Chroma subsampling : 4:2:0
Bit depth : 8 bits
Scan type : Progressive
Bits/(Pixel*Frame) : 0.061
Stream size : 694 MiB (69%)
Title : Mafiaking
Writing library : x264 core 142 r2431 ac76440
Language : English
Default : Yes
Forced : No


Audio #1
ID : 2
Format : AC-3
Format/Info : Audio Coding 3
Mode extension : CM (complete main)
Format settings, Endianness : Big
Codec ID : A_AC3
Duration : 1h 39mn
Bit rate mode : Constant
Bit rate : 224 Kbps
Channel(s) : 2 channels
Channel positions : Front: L R
Sampling rate : 48.0 KHz
Bit depth : 16 bits
Compression mode : Lossy
Delay relative to video : 529ms
Stream size : 160 MiB (16%)
Title : Mafiaking
Language : Hindi
Default : Yes
Forced : No

Torrent Free Download: Here

0 comentarii:

Trimiteți un comentariu