some_text
News: The new address of our site is www.esas.ro! Please use search if you find something. Thank you
joi, 14 ianuarie 2016


A recounting of a whaling ship's sinking by a giant whale in 1820 that would inspire the great novel.


Director: Ron Howard
Writers: Charles Leavitt (screenplay), Charles Leavitt (story)
Stars: Chris Hemsworth, Cillian Murphy, Brendan Gleeson
Genres: Action | Adventure | Biography | Drama | History | Thriller
Country: USA | Australia | Spain | UK | Canada
Language: English


In.The.Heart.of.the.Sea.2015.DVDScr.XVID.AC3.HQ.Hive

Thx Hive
CM8 Doing It Right The First Time 
Source: DVD-Screener Big Thanks M8

Notes:
Source: DVD-Screener Big THX m8

Notes:
DVDScreener 4 of 40
will do them all one after each other, 4th hot title

Encode:
quality was perfect on this.
All digital watermarks are removed.
Fixed brightness,contrast and rgb, and added sharpness.

got very nice
enjoy

Video: 720x400 @bitrate 1800 2pass
Audio: English AC3 2.0 Stereo
Sample: yes included



Complete Name : In.The.Heart.of.the.Sea.2015.DVDScr.XVID.AC3.HQ.Hive-CM8.avi
Format : AVI
Format/Info : Audio Video Interleave
File size : 1.77 GiB
Duration : 2h 1mn
Overall bit rate : 2 080 Kbps
Writing application : Nandub v1.0rc2
Writing library : Nandub build 1853/release

Video
ID : 0
Format : MPEG-4 Visual
Format profile : Advanced [email protected]
Format settings, BVOP : 2
Format settings, QPel : Yes
Format settings, GMC : No warppoints
Format settings, Matrix : Default (H.263)
Muxing mode : Packed bitstream
Codec ID : XVID
Codec ID/Hint : XviD
Duration : 2h 1mn
Bit rate : 1 812 Kbps
Width : 720 pixels
Height : 400 pixels
Display aspect ratio : 16:9
Frame rate : 29.970 fps
Color space : YUV
Chroma subsampling : 4:2:0
Bit depth : 8 bits
Scan type : Progressive
Compression mode : Lossy
Bits/(Pixel*Frame) : 0.210
Stream size : 1.54 GiB (87%)
Writing library : XviD 1.2.1 (UTC 2008-12-04)

Audio
ID : 1
Format : AC-3
Format/Info : Audio Coding 3
Mode extension : CM (complete main)
Format settings, Endianness : Big
Codec ID : 2000
Duration : 2h 1mn
Bit rate mode : Constant
Bit rate : 256 Kbps
Channel(s) : 2 channels
Channel positions : Front: L R
Sampling rate : 48.0 KHz
Bit depth : 16 bits
Compression mode : Lossy
Stream size : 223 MiB (12%)
Alignment : Split accross interleaves
Interleave, duration : 33 ms (1.00 video frame)
Interleave, preload duration : 500 ms

Torrent Free Download: Here

0 comentarii:

Trimiteți un comentariu