some_text
News: The new address of our site is www.esas.ro! Please use search if you find something. Thank you
luni, 18 ianuarie 2016


The former World Heavyweight Champion Rocky Balboa serves as a trainer and mentor to Adonis Johnson, the son of his late friend and former rival Apollo Creed.

Director: Ryan Coogler

Writers: Ryan Coogler (screenplay), Aaron Covington , Sylvester Stallone, Tessa Thompson
Genres: Drama | Sport
Country: USA
Language: English




Creed.2015.DVDScr.XVID.AC3.HQ.Hive-CM8


Thx Hive


CM8 Doing It Right The First Time 


Source: DVD-Screener Big Thanks M8



Notes:


DVDScreener 2 of 40
will do them all one after each other, 2nd hot title



Encode:


quality was perfect on this.
All digital watermarks are removed,had to crop 10 lines to get it done safely.
Fixed brightness,contrast and rgb, and added sharpness.



got very nice
enjoy



Video: 720x288 @bitrate 1600 2pass
Audio: English AC3 2.0 Stereo
Sample: yes included


                                                                   General


Complete name : Creed.2015.DVDScr.XVID.AC3.HQ.Hive-CM8.avi
Format : AVI
Format/Info : Audio Video Interleave
File size : 1.73 GiB
Duration : 2h 13mn
Overall bit rate : 1 865 Kbps
Writing application : Nandub v1.0rc2
Writing library : Nandub build 1853/release



Video
ID : 0
Format : MPEG-4 Visual
Format profile : Advanced [email protected]
Format settings, BVOP : 2
Format settings, QPel : Yes
Format settings, GMC : No warppoints
Format settings, Matrix : Default (H.263)
Muxing mode : Packed bitstream
Codec ID : XVID
Codec ID/Hint : XviD
Duration : 2h 13mn
Bit rate : 1 597 Kbps
Width : 720 pixels
Height : 288 pixels
Display aspect ratio : 2.500
Frame rate : 29.970 fps
Color space : YUV
Chroma subsampling : 4:2:0
Bit depth : 8 bits
Scan type : Progressive
Compression mode : Lossy
Bits/(Pixel*Frame) : 0.257
Stream size : 1.49 GiB (86%)
Writing library : XviD 1.2.1 (UTC 2008-12-04)



Audio
ID : 1
Format : AC-3
Format/Info : Audio Coding 3
Mode extension : CM (complete main)
Format settings, Endianness : Big
Codec ID : 2000
Duration : 2h 13mn
Bit rate mode : Constant
Bit rate : 256 Kbps
Channel(s) : 2 channels
Channel positions : Front: L R
Sampling rate : 48.0 KHz
Bit depth : 16 bits
Compression mode : Lossy
Stream size : 244 MiB (14%)
Alignment : Split accross interleaves
Interleave, duration : 33 ms (1.00 video frame)
Interleave, preload duration : 500 ms

Torrent Free Download: Here

0 comentarii:

Trimiteți un comentariu