some_text
News: The new address of our site is www.esas.ro! Please use search if you find something. Thank you
vineri, 4 decembrie 2015


INFO: 


Jean Reno...Pierre Niémans
Vincent Cassel...Max Kerkerian
Jean-Pierre Cassel...Dr Bernard Chernezé
Nadia Farès...Fanny Fereira
Dominique Sanda...Siostra Andrée
Karim Belkhadra...Kapitan Dahmane
Didier Flamand...Dziekan
François Levantal...Patolog

Dane techniczne:

Audio: French|DTS-ES|1536kbps
Subtitles Muxed: English,Polish

Format : Matroska
Format version : Version 4 / Version 2
File size : 6.53 GiB
Duration : 1h 45mn
Overall bit rate : 8 843 Kbps
Writing application : mkvmerge v6.1.0 ('Old Devil') 
Writing library : libebml v1.3.0 + libmatroska v1.4.0



Video #1

ID : 1
Format : AVC
Format/Info : Advanced Video Codec
Format profile : [email protected]
Format settings, CABAC : Yes
Format settings, ReFrames : 6 frames
Codec ID : V_MPEG4/ISO/AVC
Duration : 1h 45mn
Bit rate : 7 330 Kbps
Width : 1 280 pixels
Height : 544 pixels
Display aspect ratio : 2.35:1
Frame rate mode : Constant
Frame rate : 24.000 fps
Color space : YUV
Chroma subsampling : 4:2:0
Bit depth : 8 bits
Scan type : Progressive
Bits/(Pixel*Frame) : 0.439
Stream size : 5.29 GiB (81%)
Writing library : x264 
Language : French
Default : Yes
Forced : No



Audio #2

ID : 2
Format : DTS
Format/Info : Digital Theater Systems
Format profile : ES
Mode : 16
Format settings, Endianness : Big
Codec ID : A_DTS
Duration : 1h 45mn
Bit rate mode : Constant
Bit rate : 1 509 Kbps
Channel(s) : 7 channels / 6 channels
Channel positions : Front: L C R, Side: L R, Back: C, LFE / Front: L C R, Side: L R, LFE
Sampling rate : 48.0 KHz
Bit depth : 24 bits
Compression mode : Lossy
Stream size : 1.12 GiB (17%)
Title : DTS-ES 5.1 1536kbps
Language : French
Default : Yes
Forced : No



Text #3

ID : 3
Format : UTF-8
Codec ID : S_TEXT/UTF8
Codec ID/Info : UTF-8 Plain Text
Title : Polish
Language : Polish
Default : Yes
Forced : No
Text #4
ID : 4
Format : UTF-8
Codec ID : S_TEXT/UTF8
Codec ID/Info : UTF-8 Plain Text
Title : English
Language : English
Default : No
Forced : No

Torrent Free Download: Here

0 comentarii:

Trimiteți un comentariu