some_text
News: The new address of our site is www.esas.ro! Please use search if you find something. Thank you
miercuri, 9 decembrie 2015


Tagline: One person can change your life forever.

Plot: Amelie, an innocent and naive girl in Paris, with her own sense of justice, decides to help those around her and along the way, discovers love. 
Total Size : 1.76 GB



General
Complete name : Le fabuleux destin d'Amélie Poulain 2001 DVDRip [H.264-MP4-AAC] ~ Mindbreaker.mp4
Format : H.264/AAC/MP4 - Anamophic
Source : DVD (retail)
File size : 1.76 GiB
Duration : 1h 56mn
Overall bit rate : 2 164 Kbps




Video
ID : 1
Format : AVC
Format/Info : Advanced Video Codec
Format profile : [email protected]
Duration : 1h 56mn
Bit rate : 2 000 Kbps
Width : 716 pixels
Height : 436 pixels
Display aspect ratio : 2.403
Frame rate : 25.000 fps
Bits/(Pixel*Frame) : 0.256
Stream size : 1.63 GiB (92%)
Writing library : x264 core 65



Audio
ID : 2
Format : AAC
Format/Info : Advanced Audio Codec
Format profile : LC
Duration : 1h 56mn
Bit rate : 160 Kbps
Channel(s) : 2 channels
Sampling rate : 48.0 KHz
Stream size : 133 MiB (7%)
Language : French



Subtitle
Format : SubRip
Language : Dutch & English

Torrent Free Download: Here

0 comentarii:

Trimiteți un comentariu