some_text
News: The new address of our site is www.esas.ro! Please use search if you find something. Thank you
joi, 5 noiembrie 2015


General InfoGeneral:


Format : MPEG-4
Format profile : Base Media / Version 2
Codec ID : mp42
File size : 968 MiB
Duration : 1h 39mn
Overall bit rate : 1 363 Kbps



Video:



ID : 1
Format : AVC
Format/Info : Advanced Video Codec
Format profile : [email protected]
Format settings, CABAC : Yes
Format settings, ReFrames : 2 frames
Codec ID : avc1
Codec ID/Info : Advanced Video Coding
Duration : 1h 39mn
Bit rate mode : Variable
Bit rate : 1 199 Kbps
Width : 718 pixels
Height : 368 pixels
Display aspect ratio : 2.35:1
Frame rate mode : Variable
Frame rate : 29.970 fps
Minimum frame rate : 14.985 fps
Maximum frame rate : 29.970 fps
Resolution : 8 bits
Colorimetry : 4:2:0
Scan type : Progressive
Bits/(Pixel*Frame) : 0.151
Stream size : 851 MiB (88%)
Writing library : x264 core 79



Audio:



ID : 2
Format : AAC
Format/Info : Advanced Audio Codec
Format version : Version 4
Format profile : LC
Format settings, SBR : No
Codec ID : 40
Duration : 1h 39mn
Bit rate mode : Variable
Bit rate : 160 Kbps
Maximum bit rate : 238 Kbps
Channel(s) : 2 channels
Channel positions : Front: L R
Sampling rate : 48.0 KHz
Stream size : 113 MiB (12%)
Language : English

Torrent Free Download: Here

0 comentarii:

Trimiteți un comentariu