some_text
News: The new address of our site is www.esas.ro! Please use search if you find something. Thank you
luni, 2 noiembrie 2015


General:


Complete name : Five Days/01 Day One.avi
Format : AVI
Format/Info : Audio Video Interleave
File size : 585 MiB
Duration : 56mn 27s
Overall bit rate : 1 448 Kbps



Video:



Format : MPEG-4 Visual
Format profile : [email protected]
Format settings, BVOP : No
Format settings, QPel : No
Format settings, GMC : No warppoints
Format settings, Matrix : Default (H.263)
Codec ID : XVID
Codec ID/Hint : XviD
Duration : 56mn 27s
Bit rate : 1 053 Kbps
Width : 652 pixels
Height : 352 pixels
Display aspect ratio : 1.85:1
Frame rate : 25.000 fps
Color space : YUV
Chroma subsampling : 4:2:0
Bit depth : 8 bits
Scan type : Progressive
Compression mode : Lossy
Bits/(Pixel*Frame) : 0.184
Stream size : 425 MiB (73%)
Writing library : XviD 1.1.2 (UTC 2006-11-01)



Audio:



Format : AC-3
Format/Info : Audio Coding 3
Mode extension : CM (complete main)
Format settings, Endianness : Big
Codec ID : 2000
Duration : 56mn 25s
Source duration : 56mn 25s
Bit rate mode : Constant
Bit rate : 384 Kbps
Channel(s) : 6 channels
Channel positions : Front: L C R, Side: L R, LFE
Sampling rate : 48.0 KHz
Bit depth : 16 bits
Compression mode : Lossy
Stream size : 155 MiB (27%)
Alignment : Aligned on interleaves
Interleave, duration : 32 ms (0.80 video frame)

Torrent Free Download: Here

0 comentarii:

Trimiteți un comentariu