some_text
News: The new address of our site is www.esas.ro! Please use search if you find something. Thank you
joi, 29 octombrie 2015


Video

ID : 1
Format : AVC
Format/Info : Advanced Video Codec
Format profile : [email protected]
Format settings, ReFrames : 8 frames
Format settings, CABAC : Yes
Codec ID : V_MPEG4/ISO/AVC
Width : 1 280 pixels
Duration : 2h 28mn
Bit rate : 999 Kbps
Height : 536 pixels
Frame rate : 23.976 fps
Display aspect ratio : 2.40:1
Frame rate mode : Constant
Bits/(Pixel*Frame) : 0.061
Color space : YUV
Chroma subsampling : 4:2:0
Scan type : Progressive
Bit depth : 8 bits
Mode extension : CM (complete main)
Stream size : 1.00 GiB (67%)
Title : [email protected]
Format : AC-3

Audio #1
ID : 2
Format settings, Endianness : Big
Format/Info : Audio Coding 3
Channel positions : Front: L C R, Side: L R, LFE
Codec ID : A_AC3
Duration : 2h 28mn
Bit rate mode : Constant
Bit rate : 224 Kbps
Sampling rate : 48.0 KHz
Channel(s) : 6 channels
Forced : No
Bit depth : 16 bits
Compression mode : Lossy
Stream size : 237 MiB (15%)
Title : [email protected]
Default : No
Language : English
Audio #2 ID : 3
Bit rate mode : Constant
Format : AC-3
Format/Info : Audio Coding 3
Mode extension : CM (complete main)
Format settings, Endianness : Big
Stream size : 237 MiB (15%)
Codec ID : A_AC3
Duration : 2h 28mn
Bit rate : 224 Kbps
Channel(s) : 6 channels
Channel positions : Front: L C R, Side: L R, LFE
Sampling rate : 48.0 KHz
Bit depth : 16 bits
Forced : No
Compression mode : Lossy
Title : [email protected]
Default : Yes
Language : Hindi

Torrent Free Download: Here

0 comentarii:

Trimiteți un comentariu