some_text
News: The new address of our site is www.esas.ro! Please use search if you find something. Thank you
sâmbătă, 10 octombrie 2015


IMDB Rating: 6.5/10.0

GENRE: Action | Crime | Thriller


General

Unique ID : 216410015257041371046819013819899403534 (0xA2CF0D888D918BD1AFC8E63600155D0E)
Complete name : HomeFront (2013) 720p Blu-Ray x264 [Dual-Audio][English 5.1 + Hindi] - Mafiaking - TeamTNT.mkv
Format : Matroska
Format version : Version 4 / Version 2
File size : 878 MiB
Duration : 1h 40mn
Overall bit rate : 1 221 Kbps
Movie name : HomeFront (2013) 720p Blu-Ray x264 [Dual-Audio][English 5.1 + Hindi] - Mafiaking - TeamTNT
Encoded date : UTC 2014-07-29 12:09:59
Writing application : mkvmerge v7.0.0 ('Where We Going') 32bit built on Jun 9 2014 15:08:34
Writing library : libebml v1.3.0 + libmatroska v1.4.1


Video

ID : 1
Format : AVC
Format/Info : Advanced Video Codec
Format profile : [email protected]
Format settings, CABAC : Yes
Format settings, ReFrames : 4 frames
Codec ID : V_MPEG4/ISO/AVC
Duration : 1h 40mn
Bit rate : 900 Kbps
Width : 1 280 pixels
Height : 536 pixels
Display aspect ratio : 2.40:1
Frame rate mode : Constant
Frame rate : 23.976 fps
Color space : YUV
Chroma subsampling : 4:2:0
Bit depth : 8 bits
Scan type : Progressive
Bits/(Pixel*Frame) : 0.055
Stream size : 630 MiB (72%)
Title : Mafiaking
Language : English
Default : Yes
Forced : No


Audio #1

ID : 2
Format : AC-3
Format/Info : Audio Coding 3
Mode extension : CM (complete main)
Format settings, Endianness : Big
Codec ID : A_AC3
Duration : 1h 40mn
Bit rate mode : Constant
Bit rate : 128 Kbps
Channel(s) : 2 channels
Channel positions : Front: L R
Sampling rate : 48.0 KHz
Bit depth : 16 bits
Compression mode : Lossy
Stream size : 92.1 MiB (10%)
Title : Mafiaking
Language : Hindi
Default : Yes
Forced : No



                                                            Torrent Free Download: Here


0 comentarii:

Trimiteți un comentariu