some_text
News: The new address of our site is www.esas.ro! Please use search if you find something. Thank you
miercuri, 23 septembrie 2015


Video
ID : 1
Format : AVC
Format/Info : Advanced Video Codec
Format profile : [email protected]
Format settings, CABAC : Yes
Format settings, ReFrames : 4 frames
Codec ID : avc1
Codec ID/Info : Advanced Video Coding
Duration : 2h 22mn
Bit rate : 3 234 Kbps
Maximum bit rate : 20.2 Mbps
Width : 1 920 pixels
Height : 1 080 pixels
Display aspect ratio : 16:9
Frame rate mode : Constant
Frame rate : 23.976 fps
Color space : YUV
Chroma subsampling : 4:2:0
Bit depth : 8 bits
Scan type : Progressive
Bits/(Pixel*Frame) : 0.065
Stream size : 3.22 GiB (83%)
Title : The.Shawshank.Redemption.VideoEncode.h264
Writing library : x264 core 142 r2479 dd79a61
Encoded date : UTC 2014-10-14 21:32:12
Tagged date : UTC 2014-10-14 21:32:59

Audio #1
ID : 2
Format : AAC
Format/Info : Advanced Audio Codec
Format profile : LC
Codec ID : 40
Duration : 2h 22mn
Bit rate mode : Variable
Bit rate : 222 Kbps
Maximum bit rate : 262 Kbps
Channel(s) : 2 channels
Channel positions : Front: L R
Sampling rate : 48.0 KHz
Compression mode : Lossy
Stream size : 226 MiB (6%)
Title : The.Shawshank.Redemption.AAC.m4a
Encoded date : UTC 2014-10-14 21:32:27
Tagged date : UTC 2014-10-14 21:32:59

Audio #2
ID : 3
Format : AC-3
Format/Info : Audio Coding 3
Mode extension : CM (complete main)
Format settings, Endianness : Big
Codec ID : ac-3
Duration : 2h 22mn
Bit rate mode : Constant
Bit rate : 448 Kbps
Channel(s) : 6 channels
Channel positions : Front: L C R, Side: L R, LFE
Sampling rate : 48.0 KHz
Bit depth : 16 bits
Compression mode : Lossy
Stream size : 457 MiB (11%)
Title : The.Shawshank.Redemption.AC3.ac3
Encoded date : UTC 2014-10-14 21:32:51
Tagged date : UTC 2014-10-14 21:32:59


                                                     Torrent Free Download: Here

0 comentarii:

Trimiteți un comentariu