some_text
News: The new address of our site is www.esas.ro! Please use search if you find something. Thank you
vineri, 4 septembrie 2015


General
Love.Rosie.2014.1080p.BluRay.X264-With English [email protected]@N.MP4
Format : MPEG-4
Format profile : Base Media / Version 2
Codec ID : mp42
File size : 2.30 GiB
Duration : 1h 42mn
Overall bit rate mode : Variable
Overall bit rate : 3 195 Kbps


Video

Format : AVC

Format/Info : Advanced Video Codec
Format profile : [email protected]
Format settings, CABAC : Yes
Format settings, ReFrames : 1 frame
Format settings, GOP : M=1, N=48
Codec ID : avc1
Codec ID/Info : Advanced Video Coding
Duration : 1h 42mn
Bit rate : 3 000 Kbps
Maximum bit rate : 8 560 Kbps
Width : 1 920 pixels
Height : 816 pixels
Display aspect ratio : 2.35:1
Frame rate mode : Constant
Frame rate : 23.976 fps
Color space : YUV
Chroma subsampling : 4:2:0
Bit depth : 8 bits
Scan type : Progressive
Bits/(Pixel*Frame) : 0.080
Stream size : 2.16 GiB (94%)

Audio

ID : 2
Format : AAC
Format/Info : Advanced Audio Codec
Format profile : LC
Codec ID : 40
Duration : 1h 42mn
Bit rate mode : Variable
Bit rate : 192 Kbps
Maximum bit rate : 202 Kbps
Channel(s) : 2 channels
Channel positions : Front: L R
Sampling rate : 44.1 KHz
Compression mode : Lossy
Stream size : 141 MiB (6%) 


                                                    Torrent Free Download:  Here

0 comentarii:

Trimiteți un comentariu