some_text
News: The new address of our site is www.esas.ro! Please use search if you find something. Thank you
sâmbătă, 12 septembrie 2015


General 
Complete name : American Pie Reunion 2012 Unrated 720p BRrip x264 [ECLiPSE HD]
Format : MPEG-4 
Format profile : Base Media 
Codec ID : isom 
File size : 699 MiB 
Duration : 1h 53mn 
Overall bit rate mode : Variable 
Overall bit rate : 859 Kbps 


Video 
ID : 1 
Format : AVC 
Format/Info : Advanced Video Codec 
Format profile : [email protected] 
Format settings, CABAC : Yes 
Format settings, ReFrames : 4 frames 
Codec ID : avc1 
Codec ID/Info : Advanced Video Coding 
Duration : 1h 53mn 
Bit rate : 760 Kbps 
Maximum bit rate : 3 957 Kbps 
Width : 1 280 pixels 
Height : 688 pixels 
Display aspect ratio : 1.85:1 
Frame rate mode : Constant 
Frame rate : 23.976 fps 
Color space : YUV 
Chroma subsampling : 4:2:0 
Bit depth : 8 bits 
Scan type : Progressive 
Bits/(Pixel*Frame) : 0.036 
Stream size : 619 MiB (88%) 
Title : ECLiPSE HD 


Audio 
ID : 2 
Format : AAC 
Format/Info : Advanced Audio Codec 
Format profile : HE-AAC / LC 
Codec ID : 40 
Duration : 1h 53mn 
Bit rate mode : Variable 
Bit rate : 96.0 Kbps 
Maximum bit rate : 104 Kbps 
Channel(s) : 2 channels 
Channel positions : Front: L R 
Sampling rate : 48.0 KHz / 24.0 KHz 
Compression mode : Lossy 
Stream size : 78.2 MiB (11%) 
Title : English - ECLiPSE HD 
Language : English 


                                                       Torrent Free Download: Here

0 comentarii:

Trimiteți un comentariu