some_text
News: The new address of our site is www.esas.ro! Please use search if you find something. Thank you
duminică, 20 septembrie 2015


Complete name : 21.Jump.Street.2012.R5.DVDRip.XVID.AC3-ADTRG.avi
Format : AVI
Format/Info : Audio Video Interleave
File size : 1.66 GiB
Duration : 1h 45mn
Overall bit rate : 2 257 Kbps
Writing library : VirtualDub build 34703/release

Video
ID : 0
Format : MPEG-4 Visual
Codec ID : XVID
Bit rate : 1 799 Kbps
Width : 720 pixels
Height : 288 pixels
Display aspect ratio : 2.500
Frame rate : 25.000 fps
Stream size : 1.33 GiB (80%)

Audio
ID : 1
Format : AC-3
Bit rate : 448 Kbps
Channel(s) : 6 channels
Channel positions : Front: L C R, Side: L R, LFE
Sampling rate : 48.0 KHz
Stream size : 338 MiB (20%)


                                                     Torrent Free Download: Here

0 comentarii:

Trimiteți un comentariu