some_text
News: The new address of our site is www.esas.ro! Please use search if you find something. Thank you
luni, 17 august 2015


Video
ID : 1
Format : AVC
Format/Info : Advanced Video Codec
Format profile : [email protected]
Format settings, CABAC : Yes
Format settings, ReFrames : 4 frames
Format settings, GOP : M=1, N=12
Codec ID : avc1
Codec ID/Info : Advanced Video Coding
Duration : 2h 0mn
Bit rate : 3 958 Kbps
Width : 1 920 pixels
Height : 804 pixels
Display aspect ratio : 2.40:1
Frame rate mode : Constant
Frame rate : 30.000 fps
Standard : Component
Color space : YUV
Chroma subsampling : 4:2:0
Bit depth : 8 bits
Scan type : Progressive
Bits/(Pixel*Frame) : 0.085
Stream size : 3.33 GiB (94%)
Title : Terminator.Genisys.2015.1080p.HDRip.KORSUB.x264.AAC2.0-RARBG
Language : English
Color range : Limited

Audio

ID : 2
Format : AAC
Format/Info : Advanced Audio Codec
Format profile : LC
Codec ID : 40
Duration : 2h 0mn
Bit rate mode : Constant
Bit rate : 224 Kbps
Channel(s) : 2 channels
Channel positions : Front: L R
Sampling rate : 48.0 KHz
Compression mode : Lossy
Stream size : 193 MiB (5%)
Title : Terminator.Genisys.2015.1080p.HDRip.KORSUB.x264.AAC2.0-RARBG
Language : English


                                                     Torrent Free Download:  Here

0 comentarii:

Trimiteți un comentariu