some_text
News: The new address of our site is www.esas.ro! Please use search if you find something. Thank you
luni, 24 august 2015



Mediainfo :

Video
ID : 1
Format : AVC
Format/Info : Advanced Video Codec
Format profile : [email protected]
Format settings, CABAC : No
Format settings, ReFrames : 2 frames
Codec ID : V_MPEG4/ISO/AVC
Duration : 2h 21mn
Bit rate : 3 841 Kbps
Width : 1 280 pixels
Height : 534 pixels
Display aspect ratio : 2.40:1
Frame rate mode : Constant
Frame rate : 23.976 fps
Color space : YUV
Chroma subsampling : 4:2:0
Bit depth : 8 bits
Scan type : Progressive
Bits/(Pixel*Frame) : 0.234
Stream size : 3.80 GiB (89%)
Title : Avengers.Age.of.Ultron.2015.720p.WEB-DL.DD5.1.H264-RARBG
Language : English
Default : Yes
Forced : No
Color range : Limited
Color primaries : BT.709
Transfer characteristics : BT.709
Matrix coefficients : BT.709

Audio
ID : 2
Format : AC-3
Format/Info : Audio Coding 3
Mode extension : CM (complete main)
Format settings, Endianness : Big
Codec ID : A_AC3
Duration : 2h 21mn
Bit rate mode : Constant
Bit rate : 384 Kbps
Channel(s) : 6 channels
Channel positions : Front: L C R, Side: L R, LFE
Sampling rate : 48.0 KHz
Compression mode : Lossy
Stream size : 389 MiB (9%)
Title : Avengers.Age.of.Ultron.2015.720p.WEB-DL.DD5.1.H264-RARBG
Language : English
Default : Yes
Forced : No

Text
ID : 3
Format : UTF-8
Codec ID : S_TEXT/UTF8
Codec ID/Info : UTF-8 Plain Text
Language : English
Default : No
Forced : No

Menu
00:00:00.000 : en:1
00:12:15.000 : en:2
00:21:24.000 : en:3
00:33:01.000 : en:4
00:36:07.000 : en:5
00:42:00.000 : en:6
00:52:43.000 : en:7
00:59:00.000 : en:8
01:15:51.000 : en:9
01:27:08.000 : en:10
01:36:44.000 : en:11
01:54:35.000 : en:12
02:06:27.000 : en:13
02:11:08.000 : en:14


Torrent Free Download Here

0 comentarii:

Trimiteți un comentariu