some_text
News: The new address of our site is www.esas.ro! Please use search if you find something. Thank you
duminică, 5 iulie 2015


The.Karate.Kid.2010.DVDRip.X264.SDTeam
Language.....: English -(GREETZ TO THE GREATZ:

BadGirl2k9 
UnDeaD 
algpz500 
virusofsaten 
WICCYWOLF
FoxyB 
Joker321

#
Work causes a single mother to move to China with her young son;
in his new home, the boy embraces kung fu, taught to him by a master.


The.Karate.Kid.2010.DVDRip.X264.SDTeam

Format : Matroska
File size : 625 MiB
Duration : 2h 7mn
Overall bit rate : 687 Kbps
Video
ID : 1
Format : AVC
Format/Info : Advanced Video Codec
Format profile : [email protected]
Format settings, CABAC : Yes
Format settings, ReFrames : 4 frames
Muxing mode : Container [email protected]
Codec ID : V_MPEG4/ISO/AVC
Duration : 2h 7mn
Bit rate : 481 Kbps
Nominal bit rate : 500 Kbps
Width : 640 pixels
Height : 288 pixels
Display aspect ratio : 2.222
Frame rate : 20.000 fps
Original frame rate : 43 690.668 fps
Resolution : 8 bits
Colorimetry : 4:2:0
Scan type : Progressive
Bits/(Pixel*Frame) : 0.131
Stream size : 438 MiB (70%)

Audio
ID : 2
Format : AC-3
Format/Info : Audio Coding 3
Codec ID : A_AC3
Duration : 2h 7mn
Bit rate mode : Constant
Bit rate : 192 Kbps
Channel(s) : 2 channels
Channel positions : Front: L R
Sampling rate : 48.0 KHz
Stream size : 175 MiB (28%)


                                                    Torrent Free Download: Here

0 comentarii:

Trimiteți un comentariu