some_text
News: The new address of our site is www.esas.ro! Please use search if you find something. Thank you
sâmbătă, 4 iulie 2015


Insidious Chapter 3 .1080p English+chinese subtitles [email protected]@N.MP4 
Format : MPEG-4 
Format profile : Base Media / Version 2 
Codec ID : mp42 
File size : 1.47 GiB 
Duration : 1h 37mn 
Overall bit rate mode : Variable 
Overall bit rate : 2 154 Kbps 
Movie name : Insidious Chapter 3 1080p English+chinese subtitles [email protected]@N 
Recorded date : 0 

Video 

Format : AVC 
Format/Info : Advanced Video Codec 
Format profile : [email protected] 
Format settings, CABAC : Yes 
Format settings, ReFrames : 1 frame 
Codec ID : avc1 
Codec ID/Info : Advanced Video Coding 
Duration : 1h 37mn 
Bit rate : 1 960 Kbps 
Maximum bit rate : 7 541 Kbps 
Width : 1 920 pixels 
Height : 800 pixels 
Display aspect ratio : 2.40:1 
Frame rate mode : Constant 
Frame rate : 23.976 fps 
Color space : YUV 
Chroma subsampling : 4:2:0 
Bit depth : 8 bits 
Scan type : Progressive 
Bits/(Pixel*Frame) : 0.053 
Stream size : 1.33 GiB (91%) 

Audio 

Format : AAC 
Format/Info : Advanced Audio Codec 
Format profile : LC 
Codec ID : 40 
Duration : 1h 37mn 
Bit rate mode : Variable 
Bit rate : 192 Kbps 
Maximum bit rate : 201 Kbps 
Channel(s) : 2 channels 
Channel positions : Front: L R 
Sampling rate : 44.1 KHz 
Compression mode : Lossy 
Stream size : 134 MiB (9%) 


                                                            Torrent Free Download: Here

0 comentarii:

Trimiteți un comentariu