some_text
News: The new address of our site is www.esas.ro! Please use search if you find something. Thank you
joi, 25 iunie 2015


Format : AVI
Format/Info : Audio Video Interleave
Format profile : OpenDML
File size : 2.23 GiB
Duration : 1h 20mn
Overall bit rate : 3 991 Kbps
Movie name : RARBG.COM - The.SpongeBob.Movie.Sponge.Out.of.Water.2015.720p.HC.WEBRip.XviD.MP3-RARBG
Writing library : VirtualDub build 35491/release
Comment : RARBG.COM - The.SpongeBob.Movie.Sponge.Out.of.Water.2015.720p.HC.WEBRip.XviD.MP3-RARBG

Video
ID : 0
Format : MPEG-4 Visual
Format profile : [email protected]
Format settings, BVOP : No
Format settings, QPel : No
Format settings, GMC : No warppoints
Format settings, Matrix : Default (H.263)
Codec ID : XVID
Codec ID/Hint : XviD
Duration : 1h 20mn
Bit rate : 3 783 Kbps
Width : 1 280 pixels
Height : 720 pixels
Display aspect ratio : 16:9
Frame rate : 25.000 fps
Color space : YUV
Chroma subsampling : 4:2:0
Bit depth : 8 bits
Scan type : Progressive
Compression mode : Lossy
Bits/(Pixel*Frame) : 0.164
Stream size : 2.11 GiB (95%)
Writing library : Lavc56.13.100

Audio
ID : 1
Format : MPEG Audio
Format version : Version 1
Format profile : Layer 3
Mode : Joint stereo
Codec ID : 55
Codec ID/Hint : MP3
Duration : 1h 20mn
Bit rate mode : Constant
Bit rate : 192 Kbps
Channel(s) : 2 channels
Sampling rate : 48.0 KHz
Compression mode : Lossy
Stream size : 110 MiB (5%)
Alignment : Aligned on interleaves
Interleave, duration : 24 ms (0.60 video frame)
Interleave, preload duration : 504 ms


                                                             Torrent Free Download: Here

0 comentarii:

Trimiteți un comentariu