some_text
News: The new address of our site is www.esas.ro! Please use search if you find something. Thank you
marți, 9 iunie 2015


Spy.{2015}.NEWSOURCE.HQCAM.XVID.MP3.MRG

Format : AVI
Format/Info : Audio Video Interleave
Format profile : OpenDML
File size : 1.60 GiB
Duration : 1h 54mn
Overall bit rate : 2 003 Kbps


Video
ID : 0
Format : xvid
Codec ID : xvid
Duration : 1h 54mn
Bit rate : 1 829 Kbps
Width : 652 pixels
Height : 264 pixels
Display aspect ratio : 2.470
Frame rate : 29.970 fps
Bits/(Pixel*Frame) : 0.354
Stream size : 1.46 GiB (91%)

Audio
ID : 1
Format : MPEG Audio
Format version : Version 1
Format profile : Layer 3
Mode : Joint stereo
Mode extension : MS Stereo
Codec ID : 55
Codec ID/Hint : MP3
Duration : 1h 54mn
Bit rate mode : Constant
Bit rate : 160 Kbps
Channel(s) : 2 channels
Sampling rate : 48.0 KHz
Compression mode : Lossy
Stream size : 131 MiB (8%)
Alignment : Aligned on interleaves
Interleave, duration : 24 ms (0.72 video frame)


                                           Torrent Free Download: Here

0 comentarii:

Trimiteți un comentariu