some_text
News: The new address of our site is www.esas.ro! Please use search if you find something. Thank you
luni, 8 iunie 2015


Format : AVI Format/Info : Audio Video Interleave Format profile : OpenDML File size : 2.87 GiB Duration : 2h 13mn Overall bit rate : 3 077 Kbps Writing library : Boilsoft AVI tool build 30012/release Video ID : 0 Format : MPEG-4 Visual Format profile : Advanced [email protected] Format settings, BVOP : 2 Format settings, QPel : No Format settings, GMC : No warppoints Format settings, Matrix : Default (H.263) Muxing mode : Packed bitstream Codec ID : XVID Codec ID/Hint : XviD Duration : 2h 13mn Bit rate : 2 873 Kbps Width : 1 280 pixels Height : 592 pixels Display aspect ratio : 2.2:1 Frame rate : 30.000 fps Color space : YUV Chroma subsampling : 4:2:0 Bit depth : 8 bits Scan type : Progressive Compression mode : Lossy Bits/(Pixel*Frame) : 0.126 Stream size : 2.68 GiB (93%) Writing library : XviD 66 Audio ID : 1 Format : MPEG Audio Format version : Version 1 Format profile : Layer 3 Mode : Joint stereo Mode extension : MS Stereo Codec ID : 55 Codec ID/Hint : MP3 Duration : 2h 12mn Bit rate mode : Constant Bit rate : 192 Kbps Channel(s) : 2 channels Sampling rate : 44.1 KHz Compression mode : Lossy Delay relative to video : 6s 0ms Stream size : 182 MiB (6%) Alignment : Split accross interleaves Interleave, duration : 33 ms (1.00 video frame) Interleave, preload duration : 500 ms

Torrent Free Download: Here

0 comentarii:

Trimiteți un comentariu